Aliens Vs. Avatars [DvdRIP] [2011] [Sub.] [Ciencia Ficcion]



Una raza alienígena llega a la Tierra para apoderarse de sus recursos, pero otra raza de avatars se pondrá en camino para liberar a los humanos de las criaturas extraterrestres.

Titulo: Aliens Vs. Avatars
Año: 2011
Genero: Ciencia Ficcion
Idioma: Ingles con subtitulos en español pegados al video
Formato: AVI
Calidad de imagen: Muy Buena
dijo:
General
Complete name : files/p-ali__Luke.avi
Format : AVI
Format/Info : Audio Video Interleave
File size : 1.05 GiB
Duration : 1h 20mn
Overall bit rate : 1 872 Kbps

Video
ID : 0
Format : MPEG-4 Visual
Format profile : Advanced [email protected]
Format settings, BVOP : No
Format settings, QPel : No
Format settings, GMC : No warppoints
Format settings, Matrix : Default (H.263)
Codec ID : XVID
Codec ID/Hint : XviD
Duration : 1h 20mn
Bit rate : 1 731 Kbps
Width : 640 pixels
Height : 360 pixels
Display aspect ratio : 16:9
Frame rate : 29.970 fps
Color space : YUV
Chroma subsampling : 4:2:0
Bit depth : 8 bits
Scan type : Progressive
Bits/(Pixel*Frame) : 0.251
Stream size : 994 MiB (92%)
Writing library : Magic0432

Audio
ID : 1
Format : MPEG Audio
Format version : Version 1
Format profile : Layer 3
Mode : Joint stereo
Mode extension : MS Stereo
Codec ID : 55
Codec ID/Hint : MP3
Duration : 1h 20mn
Bit rate mode : Constant
Bit rate : 128 Kbps
Channel(s) : 2 channels
Sampling rate : 44.1 KHz
Stream size : 73.5 MiB (7%)
Alignment : Aligned on interleaves
Interleave, duration : 26 ms (0.78 video frame)
Writing library : LAME3.97






http://www.wupload.com/folder/764676